#TITLE:The Warrior Inside;
#SUBTITLE:;
#ARTIST:Dragonforce;
#TITLETRANSLIT:;
#SUBTITLETRANSLIT:;
#ARTISTTRANSLIT:;
#CREDIT:;
#BANNER:The Warrior Inside.jpg;
#BACKGROUND:The Warrior Inside-bg.jpg;
#LYRICSPATH:;
#CDTITLE:marth.png;
#MUSIC:The Warrior Inside.mp3;
#OFFSET:-0.080;
#SAMPLESTART:98.300;
#SAMPLELENGTH:23.500;
#SELECTABLE:YES;
#DISPLAYBPM:200.000;
#BPMS:0.000=200.000,752.500=100.000,832.500=200.000,1104.500=100.000,1200.500=50.000,1207.375=25.000;
#STOPS:;
#BGCHANGES:;
// cache tags:
#FIRSTBEAT:16.000;
#LASTBEAT:1210.500;
#SONGFILENAME:Songs/Music V.I.P ^_^/The Warrior Inside/The Warrior Inside.sm;
#HASMUSIC:1;
#HASBANNER:1;
#MUSICLENGTH:434.787;
// end cache tags

//---------------dance-double - ----------------
#NOTES:
     dance-double:
     :
     Easy:
     3:
     0.047,0.051,0.007,0.018,0.000,131.000,3.000,8.000,0.000,0.000:
00000000
00000000
00000000
00000000
,
00000000
00000000
00000000
00000000
,
00000000
00000000
00000000
00000000
,
00000000
00000000
00000000
00000000
,
00100000
00000000
10000000
00000000
,
00100000
00000000
00010000
00001000
,
00000010
00000000
00000001
00000000
,
00000010
00000000
00001000
00010000
,
00002000
00000000
00000000
00003000
,
00020000
00030000
00001000
00001000
,
00010000
00000000
00100000
00000000
,
01000000
00000000
00100000
00000000
,
10000000
00000000
01000000
00000000
,
00010000
00000000
00001000
00000000
,
00000100
00000000
00000010
00000000
,
00000100
00000000
00000001
00000000
,
00000010
00000000
00001000
00000000
,
00010000
00000000
00011000
00000000
,
00010000
01000000
00010000
00000000
,
00001000
00000000
00001000
00000000
,
00001000
00000100
00001000
00000000
,
00010000
00000000
00010000
00000000
,
00001000
00000000
00000010
00000000
,
00000001
00000000
00000010
00000000
,
00001000
00001000
00000000
00010000
,
00010000
00000000
00011000
00000000
,
00010000
00100000
00010000
00100000
,
10000000
00000000
01000000
00010000
,
00001000
00000010
00001000
00000010
,
00000001
00000000
00000100
00001000
,
00010000
00000000
01000000
00000000
,
10000000
00000000
01000000
00000000
,
00010000
00000000
00001000
00000000
,
00000100
00000000
00001000
00000000
,
00020000
00000000
00001000
00030000
,
00020000
00000000
00000100
00030000
,
00020000
00000000
00000010
00030000
,
00020000
00000000
00001000
00031000
,
00010000
00100000
00000000
00100000
,
10000000
01000000
00000000
00100000
,
00010000
00001000
00000000
00000100
,
00000001
00000000
00000100
00000010
,
00001000
00000010
00000000
00000010
,
00000001
00000100
00000000
00000010
,
00001000
00010000
00000000
01000000
,
10000000
00000000
01000000
00100000
,
00010000
01000000
00000000
01000000
,
10000000
00100000
00000000
01000000
,
00010000
00001000
00000000
00000010
,
00000001
00000000
00000010
00000100
,
00001000
00000100
00000000
00000100
,
00000001
00000010
00000000
00000100
,
00001000
00010000
00000000
00100000
,
10000000
00000000
00100000
01000000
,
00001000
00000000
00010000
00000000
,
00022000
00000000
00000000
00033000
;

//---------------dance-double - ----------------
#NOTES:
     dance-double:
     :
     Medium:
     5:
     0.081,0.083,0.048,0.023,0.000,215.000,21.000,10.000,0.000,0.000:
00000000
00000000
00000000
00000000
,
00000000
00000000
00000000
00000000
,
00000000
00000000
00000000
00000000
,
00000000
00000000
00000000
00000000
,
00100000
00000000
10000000
00000000
01000000
00010000
00001000
00000000
,
00010000
00000000
00100000
00000000
10000000
00100000
00010000
00000000
,
00001000
00000000
00000010
00000000
00001000
00010000
00001000
00000000
,
00001000
00000010
00000001
00001001
,
00000200
00000000
00000000
00000300
,
00020000
00030000
00002000
00003000
,
00010000
00000000
00100000
00000000
10000000
00100000
10000000
00000000
,
00100000
00010000
00001000
00010000
,
00001000
00000000
00000010
00000000
00000001
00000010
00000001
00000000
,
00000010
00001000
00010000
00001000
,
00010000
01000000
10000000
00100000
,
00010000
00000000
00001000
00000000
00000100
00000010
00001000
00000000
,
00000100
00000001
00000010
00001000
,
00010000
00000000
00100000
00000000
00010000
00001000
00010000
00000000
,
00001000
00000010
00001000
00000000
00000010
00000000
00000001
00000000
,
00000010
00001000
00000010
00000000
00001000
00000000
00010000
00000000
,
00010000
01000000
00010000
00000000
01000000
00000000
10000000
00000000
,
01000000
00010000
01000000
00000000
00010000
00000000
00001000
00000000
,
00001000
00000010
00001000
00000000
00010000
00000000
01000000
00000000
,
00010000
00001000
00000010
00000001
,
00000100
00000101
00000010
00010010
,
00001000
00000000
00011000
00010000
,
00001000
00000010
00001000
00010000
,
01000000
00000000
00010000
00000000
00001000
00000010
00001000
00000000
,
00000010
00000011
00000001
00000100
,
00001000
00011000
00010000
00011000
,
00010000
01000000
00010000
00001000
,
00000010
00000000
00001000
00000000
00010000
01000000
00010000
00000000
,
01000000
11000000
10000000
00100000
,
00010000
00011000
00001000
00011000
,
00002000
00000000
00000010
00003010
,
00000020
00000000
00000001
00000031
,
00000002
00000103
00000200
00001300
,
00002000
00013000
00001000
00011000
,
00010000
00100000
00010000
00000000
00100000
00000000
10000000
00000000
,
01000000
10000000
00100000
00010000
,
00001000
00000010
00001000
00000000
00000010
00000000
00000001
00000000
,
00000100
00000001
00000010
00001000
,
00010000
00110000
00100000
10100000
,
10000000
11000000
01000000
01010000
,
00010000
00001000
00000100
00000001
,
00000100
00001000
00010000
00011000
,
00001000
00000100
00001000
00000000
00000100
00000000
00000001
00000000
,
00000010
00000001
00000100
00001000
,
00010000
01000000
00010000
00000000
01000000
00000000
10000000
00000000
,
00100000
10000000
01000000
00010000
,
00001000
00001100
00000100
00000101
,
00000001
00000011
00000010
00001010
,
00001000
00010000
00100000
10000000
,
00100000
00010000
00001000
00000100
,
00000001
00000100
00001000
00010000
,
00022000
00000000
00000000
00033000
;

//---------------dance-double - ----------------
#NOTES:
     dance-double:
     :
     Hard:
     8:
     0.097,0.088,0.018,0.009,0.021,283.000,8.000,4.000,0.000,0.000:
00000000
00000000
00000000
00000000
,
00000000
00000000
00000000
00000000
,
00000000
00000000
00000000
00000000
,
00000000
00000000
00000000
00000000
,
00100000
10000000
01000000
10000000
00000000
00010000
00100000
00000000
,
10000000
01000000
00010000
00000000
00001000
00000000
00000100
00000000
,
00000001
00000010
00000001
00000100
00000000
00000010
00001000
00000000
,
00000001
00000000
00000100
00000000
00000000
00001000
00000000
00000000
00010000
00000000
00001000
00000000
00000100
00000000
00001000
00000000
,
00020000
00000000
00000000
00000000
,
02030000
00000000
23000000
30000000
,
01000000
00000000
10000000
00000000
01000000
00000000
00000000
00000000
00100000
00000000
00000000
00010000
00000000
00000000
01000000
00000000
,
00100000
00000000
10000000
00000000
01000000
00000000
00000000
00000000
00010000
00000000
00000000
00001000
00000000
00000000
00000010
00000000
,
00000100
00000000
00000010
00000001
00000100
00000000
00000001
00000100
,
00001000
00000000
00000010
00001000
00000010
00000100
00001000
00000000
,
00010000
00000000
01000000
00000000
00010000
10000000
01000000
00000000
,
10000000
00000000
00010000
00100000
00010000
01000000
00010000
00000000
,
10000000
00000000
00010000
00000000
00001000
00010000
00001000
00000010
,
00000100
00000000
00000000
00000001
00000000
00000000
00000100
00000000
00000001
00000000
00000000
00001000
00000000
00000000
00000001
00000000
,
00000100
00000000
00000001
00000100
00001000
00000000
00010000
01000000
,
00100000
00000000
00010000
10000000
00010000
00000000
10000000
00100000
,
01000000
00000000
00010000
00100000
00000000
01000000
10000000
00000000
,
00100000
10000000
01000000
00000000
00100000
00010000
00100000
00001000
,
00010000
00000000
00000010
00001000
00000010
00000000
00000100
00000001
,
00000100
00000000
00000010
00000100
00000001
00000000
00000100
00000000
,
00001000
00000000
00000000
00010000
00000000
00000000
00100000
00000000
10000000
00000000
00000000
00010000
00000000
00000000
01000000
00000000
,
20000000
00000000
00000000
00000000
31000000
00000000
01000000
00010000
,
10000000
01000000
10000000
01000000
00000000
10000000
00000000
00010000
,
00000000
10000000
01000000
00000000
00010000
00000000
00011000
00000000
,
00000100
00001000
00000100
00001000
00000000
00000001
00000000
00001000
,
00000000
00000001
00000100
00000000
00001000
00000000
00011000
00000000
,
00100000
00010000
10000000
01000000
00000000
10000000
00000000
11000000
,
00000000
10000000
00010000
00000000
10000000
00000000
10100000
00000000
,
10000000
01000000
00010000
01000000
00000000
00010000
00001000
00000010
,
00000000
00000001
00001000
00000000
00000100
00000000
00001100
00000000
,
00000010
00000000
00000000
00000001
00000000
00000000
00000100
00000000
00000000
00000000
00001000
00000000
00000000
00010000
00000000
00000000
,
00100000
00000000
00000000
10000000
00000000
00000000
01000000
00000000
00000000
00000000
00010000
00000000
00000000
00001000
00000000
00000000
,
00000010
00000000
00000000
00000001
00000000
00000000
00000100
00000000
00000010
00000000
00000000
00001000
00000000
00000000
00000100
00000000
,
00000001
00000000
00000000
00000100
00000000
00000000
00001000
00000000
00000000
00000000
00000010
00000000
00000000
00010010
00000000
00000000
,
00001000
00010000
00001000
00010000
00000000
01000000
00000000
10000000
,
00000000
00010000
00100000
00000000
01000000
00000000
01100000
00000000
,
00010000
00001000
00010000
00001000
00000000
00000100
00000000
00000001
,
00000000
00001000
00000010
00000000
00001000
00000000
00001100
00000000
,
00010000
00000100
00010000
00000010
00010000
00001000
00000000
01000000
,
00000000
00100000
10000000
00100000
01000000
00000000
00010000
10000000
,
00010000
10000000
00000000
00010000
10000000
01000000
00000000
00010000
,
00001000
00000000
00010000
00000000
00000000
01000000
00000000
00000000
00010000
00000000
00000000
00001000
00000000
00000000
00000100
00000000
,
00000001
00000100
00000001
00000100
00000000
00000010
00000100
00000010
,
00000000
00000100
00000001
00000100
00001000
00000000
00010000
01000000
,
10000000
00000000
00010000
00100000
00010000
10000000
01000000
10000000
,
00000000
01000000
10000000
01000000
00010000
00000000
00001000
00000100
,
00000010
00000000
00000100
00000000
00000010
00000000
00000000
00001000
00000000
00000000
00000001
00000000
00000100
00000000
00001000
00000000
,
00000000
00010000
00100000
01000000
00010000
00000000
10000000
00100000
,
10000000
01000000
00100000
00010000
00000000
10000000
01000000
10000000
,
00000000
10000000
00010000
00000000
10000000
01000000
00010000
00001000
,
00010000
00001000
00000000
00000100
00000000
00000001
00000000
00001000
;

//---------------dance-double - ----------------
#NOTES:
     dance-double:
     :
     Challenge:
     1:
     0.001,0.013,0.000,0.002,0.000,1.000,0.000,1.000,0.000,0.000:
00000000
00000000
00000000
00000000
,
00000000
00000000
00000000
00000000
,
00000000
00000000
00000000
00000000
,
00000000
00000000
00000000
00000000
,
00000000
00000000
00000000
00000000
,
00000000
00000000
00000000
00000000
,
00000000
00000000
00000000
00000000
,
00000000
00000000
00000000
00000000
,
00000000
00000000
00000000
00000000
,
00000000
00000000
00000000
00000000
,
00000000
00000000
00000000
00000000
,
00000000
00000000
00000000
00000000
,
00000000
00000000
00000000
00000000
,
00000000
00000000
00000000
00000000
,
00000000
00000000
00000000
00000000
,
00000000
00000000
00000000
00000000
,
00000000
00000000
00000000
00000000
,
00000000
00000000
00000000
00000000
,
00000000
00000000
00000000
00000000
,
00000000
00000000
00000000
00000000
,
00000000
00000000
00000000
00000000
,
00000000
00000000
00000000
00000000
,
00000000
00000000
00000000
00000000
,
00000000
00000000
00000000
00000000
,
00000000
00000000
00000000
00000000
,
00000000
00000000
00000000
00000000
,
00000000
00000000
00000000
00000000
,
00000000
00000000
00000000
00000000
,
00000000
00000000
00000000
00000000
,
00000000
00000000
00000000
00000000
,
00000000
00000000
00000000
00000000
,
00000000
00000000
00000000
00000000
,
00000000
00000000
00000000
00000000
,
00000000
00000000
00000000
00000000
,
00000000
00000000
00000000
00000000
,
00000000
00000000
00000000
00000000
,
00000000
00000000
00000000
00000000
,
00000000
00000000
00000000
00000000
,
00000000
00000000
00000000
00000000
,
00000000
00000000
00000000
00000000
,
00000000
00000000
00000000
00000000
,
00000000
00000000
00000000
00000000
,
00000000
00000000
00000000
00000000
,
00000000
00000000
00000000
00000000
,
00000000
00000000
00000000
00000000
,
00000000
00000000
00000000
00000000
,
00000000
00000000
00000000
00000000
,
00000000
00000000
00000000
00000000
,
00000000
00000000
00000000
00000000
,
00000000
00000000
00000000
00000000
,
00000000
00000000
00000000
00000000
,
00000000
00000000
00000000
00000000
,
00000000
00000000
00000000
00000000
,
00000000
00000000
00000000
00000000
,
00000000
00000000
00000000
00000000
,
00000200
00000000
00000000
00000000
,
00000300
00000000
00000000
00000000
;

//---------------dance-single - ----------------
#NOTES:
     dance-single:
     :
     Challenge:
     13:
     1.000,1.000,0.803,1.000,1.000,3251.000,349.000,486.000,0.000,24.000:
0000
0000
0000
0000
,
0000
0000
0000
0000
,
0000
0000
0000
0000
,
0000
0000
0000
0000
,
0000
2000
0010
0001
0100
0000
0100
0000
,
0001
0000
0100
0000
0001
0000
0100
0010
,
0100
3002
0000
0100
1000
0000
0100
0000
,
0010
0000
0100
0010
1000
0100
0000
1000
,
0100
0023
1000
0100
0001
0100
0000
1000
,
0100
0000
0100
0000
1000
0000
0100
1000
,
0001
0230
0001
0001
1000
0000
0001
0000
,
0010
0000
0001
0000
1000
0010
0001
1000
,
0310
1001
0000
1001
0100
0100
0010
0010
,
1000
1000
0001
0001
0010
0010
1100
1100
,
1100
1100
1100
1100
0020
0000
0032
0000
,
0203
0000
2300
3200
0320
0032
0000
0000
,
0003
1001
0000
1001
0000
1001
0000
1001
,
0000
1001
0000
1001
0000
1001
0000
1001
,
0000
1100
1100
0000
0000
0000
1010
1010
,
0101
0000
0000
0101
0000
0000
0110
0000
0000
1001
0000
0000
0000
0000
0000
0002
0003
0000
0002
0003
0000
0002
0003
0000
,
0002
0000
0003
0000
0000
0000
0010
0000
0000
0100
0000
0000
0010
0000
0000
0100
0000
0000
0010
0000
0000
0100
0000
0000
0010
0000
0000
0000
0000
0000
0010
0000
0000
0100
0000
0000
0010
0000
0000
0100
0000
0000
0010
0000
0000
0100
0000
0000
,
0010
0100
1001
0010
0100
1000
0001
1000
0110
0001
0100
1000
0001
0010
1100
0001
,
0100
1000
0011
1000
0100
0010
0100
1000
0011
0100
0001
1000
0100
1000
0011
1000
,
0001
0010
1100
0010
0001
0010
0100
0010
1002
0000
0000
0003
0002
0003
0002
0003
,
0002
0003
0002
0003
0002
0003
0002
0003
0002
0003
0002
0000
0000
0000
0000
0000
,
0003
0000
1100
0001
1000
0001
0100
0001
0110
1000
0001
0100
1000
0001
1010
0001
,
0100
0000
0000
0001
0000
0000
1000
0000
0100
0000
0010
0000
0001
0000
0010
0000
0100
0000
1000
0000
0100
0000
0010
0000
0001
0000
0010
0000
0100
0000
1000
0000
0100
0000
0010
0000
0001
0000
0010
0000
0100
0000
1000
0000
0100
0000
0010
0000
,
0001
0010
0100
2000
0000
0000
0000
0000
0000
0000
0000
0000
3200
0000
0000
0000
0000
0000
0000
0000
0000
0320
0000
0000
,
0000
0000
0130
1000
0100
1000
0100
1000
0100
0010
0100
0010
0100
0010
0001
0010
,
0001
0010
0101
0000
1010
0000
0110
0000
1001
0000
1100
0000
0011
0000
1010
0000
,
0110
1001
0011
1100
0101
1010
0110
1001
,
0101
0201
0320
0000
0032
0203
0000
2300
,
3200
0320
0032
0000
0203
2300
0000
3020
,
0032
0023
0000
0000
0230
0000
0000
2300
,
0000
0000
0000
3001
0010
0100
1000
0001
0010
0100
1000
0001
0010
0100
1000
0001
0010
0100
1000
0001
0010
0100
1000
0001
,
0010
0100
1000
0200
0000
0000
0000
0000
0000
0000
0000
0000
0320
0000
0000
0000
0000
0000
0000
0000
0000
0230
0000
0000
,
0000
0302
0000
0100
0203
0000
1000
2300
,
0000
0000
0000
0000
0000
0000
0000
0000
3002
0003
0000
0000
0020
0030
0000
0000
0200
0300
0000
0000
2000
3000
0000
0000
0002
0003
0000
0000
0020
0030
0000
0000
0200
0300
0000
0000
2000
3000
0000
0000
0002
0003
0000
0000
0020
0030
0000
0000
0200
0300
0000
0000
2000
3000
0000
0000
0002
0003
0000
0000
0020
0030
0000
0000
,
0200
0300
0000
0000
2000
3000
0000
0000
0011
0000
0000
0000
0000
0000
0000
0000
0010
0000
0000
0000
0000
0000
0000
0000
0110
0000
0000
0000
0000
0000
0000
0000
0100
0000
0000
0000
0000
0000
0000
0000
0110
0000
0000
0000
0000
0000
0000
0000
0010
0000
0000
0000
0000
0000
0000
0000
1010
0000
0000
0000
0000
0000
0000
0000
,
1000
2002
0000
0000
3003
0002
0100
0000
,
0003
0000
1000
0010
1000
0001
0100
0001
1000
0100
1000
0001
0010
0001
1000
0010
,
1000
0001
0100
0001
1000
0100
1000
0001
0010
0001
1000
0010
1000
0001
0110
0000
,
0000
0000
1000
0010
0100
0001
1000
0010
0100
0001
0010
0100
1000
0001
0100
0010
,
1000
0001
0200
0310
1000
0001
0200
0310
0001
0010
0100
1000
0100
0001
0020
0000
,
0030
0000
0001
0010
0100
0010
0001
1000
0100
0010
0100
1000
0001
1000
0100
0010
,
0001
1000
0001
0010
0100
1000
0100
0010
0001
1000
0100
1000
0001
0100
0001
0010
,
0100
1000
0010
0100
0010
0100
0010
0100
0010
0100
0010
0100
0010
0100
0010
0100
,
0010
0100
0011
0000
0000
0000
1001
0000
0000
0000
1100
0000
0000
0000
0101
0000
,
0000
0000
1001
0100
0010
1000
0010
0100
1000
0010
1000
0100
0010
0001
0010
0100
,
0001
0100
0010
0001
0100
0001
0010
0100
1000
0001
1000
0100
0010
0001
0010
0100
,
1000
0100
0011
1000
0001
1000
0001
0010
0100
0001
1000
0100
0010
1000
0001
0010
,
0100
1000
0200
0000
0302
0000
2003
0000
3020
0000
0230
0000
0320
0000
2030
0000
,
3200
1320
0000
0000
0000
0001
0000
0001
,
0000
1230
0000
0000
0000
1000
0000
1000
,
0000
2301
0000
0000
0001
0001
0000
0000
,
0001
0000
0001
0000
0010
0100
0010
0100
,
3010
0000
0001
1000
0001
1000
0001
1000
0001
1000
0001
1000
0001
1000
0001
1000
,
0001
1000
0001
1000
0001
1000
0001
1000
0001
1000
0001
1000
0001
1000
0220
0000
,
0330
0000
1100
0001
1000
0001
0100
0000
0100
0000
1010
0001
1000
0000
0110
0000
,
0100
0000
1001
0100
1000
0000
0101
0000
0001
0000
1010
0100
0010
0000
1100
0000
,
1000
0000
0101
0010
0001
0000
0110
0000
0100
0000
1001
0010
0100
0000
0011
0000
,
0001
0000
1000
0010
1000
0010
0001
0010
0001
0010
0100
1000
0100
1000
0100
0010
,
0100
0010
1001
0000
1000
0000
1001
0000
0001
0000
1001
0000
1000
0000
1001
0000
,
0001
1001
1000
1001
0001
1001
1000
1001
,
0001
0200
2300
3200
0320
0230
2300
3020
,
0032
0203
0320
0230
0320
0230
0320
0032
,
0023
0000
1030
0001
1000
0001
1000
0001
1000
0001
1000
0001
1000
0001
1000
0001
,
1000
0001
0010
0100
0010
0100
0010
0100
0010
0100
0010
0100
0010
0100
0010
0100
,
0010
0100
0010
1000
0010
1000
0010
1000
0010
1000
0010
1000
0010
1000
0010
1000
,
0010
1000
0100
0001
0100
0001
0100
0001
0100
0001
0100
0001
0100
0001
0100
0001
,
0100
0001
0100
1000
0100
0010
0001
0010
0100
1000
0100
0010
0001
0010
0100
1000
,
0100
0010
0001
0010
0100
1000
0100
0010
0001
0010
0100
1000
0100
0010
0001
0010
,
0100
0010
1000
0100
1000
0100
1000
0100
1000
0100
1000
0100
1000
0100
1000
0100
,
1000
0100
1000
0100
1000
0100
1000
0100
1000
0100
1000
0100
0010
0001
0010
0100
,
1000
0100
0021
0000
0000
0000
0000
0000
1000
0000
0100
0000
0000
0000
0000
0000
,
0000
1230
0000
0000
0001
0001
0000
0000
,
0300
1001
0000
1001
1001
0000
1010
2020
,
3030
0000
0000
0000
0110
0000
1001
0010
0100
1000
0100
0010
0001
0010
1100
0000
,
0000
0000
0202
0303
0000
0000
0022
0033
0000
0000
0202
0303
0000
0000
0022
0033
,
0000
0000
0202
0303
0000
0000
0022
0033
0000
0000
0202
0303
0000
0000
0022
0033
,
0000
0010
0010
0010
0010
0010
0010
0010
,
0010
0010
0010
0010
0010
0110
0000
0000
,
0000
0000
0001
1000
0010
1000
0001
0100
0010
0100
0001
0100
0001
1000
0010
1000
,
0001
0100
0010
1000
0001
0100
0001
1000
0010
0100
0001
1000
0001
1000
0010
0100
,
0001
0100
0001
1000
0010
1000
0001
0100
0001
1000
0001
0100
0010
0100
0001
0100
,
0001
0010
2100
3010
0001
0010
2100
3010
0001
0010
2100
3010
0001
0010
2100
3010
,
0001
0010
0100
1000
0001
1000
0100
0010
0001
1000
0001
0010
0100
1000
0001
1000
,
0100
0010
0001
1000
0001
0010
0100
1000
0001
1000
0100
0010
0001
1000
0001
0010
,
0100
1000
0001
0010
1000
0100
0001
0010
1000
0100
0001
0010
1000
0100
0001
0010
,
1000
0100
1001
0000
0000
0000
1001
0000
0000
0000
1001
0000
0000
0000
1001
0000
,
0000
0000
0001
0100
0010
1000
0001
0100
0010
1000
0100
0010
0001
1000
0010
0100
,
0001
1000
0010
0100
0001
0010
0100
1000
0001
1000
0010
0100
0001
1000
0010
0100
,
0001
0010
0100
0010
0001
1000
0001
0100
0010
1000
0001
0100
0010
1000
0100
0010
,
0100
1000
0001
0100
0001
1000
0010
1000
0001
0100
0001
1000
0010
1000
0001
0100
,
0001
1000
0010
1000
0001
0010
0001
1000
0100
1000
0001
0010
0001
1000
0100
1000
,
0001
0100
0001
1000
0010
1000
0001
0100
0001
1000
0010
1000
0001
0010
0001
1000
,
0100
1000
0010
0100
0010
0100
0010
0100
0010
0100
0010
0100
0010
0100
0010
0100
,
0010
0100
0010
0100
0010
0100
0010
0100
0010
0100
0010
1000
0100
0010
0001
0010
,
0100
1000
0101
1000
0100
1000
0100
1000
0100
1000
0101
1000
0100
1000
0100
1000
,
0100
1000
0101
1000
0100
1000
0101
1000
0100
1000
0101
1000
0100
1000
0101
1000
,
0100
1000
0100
0000
0001
0000
0010
0000
0100
0000
0000
0000
0100
0000
0000
0000
,
0100
0000
0010
0000
0001
0000
1001
0110
,
1001
0110
0000
0010
1000
0000
0010
0000
,
0010
0000
0001
0010
0100
0001
1010
0101
,
1010
0101
1010
0102
1000
0000
1000
0100
,
0010
0000
0100
0000
0000
0010
0100
1000
,
0103
1020
0001
0100
0001
1230
0010
0000
,
0001
2310
0100
0000
0010
0100
0010
0001
,
0010
3200
0000
0000
2300
0000
0000
3200
,
0000
0302
0100
0000
0100
0000
0103
0010
,
0010
0000
0020
0000
0000
0000
0000
0000
0230
0000
0000
0000
0000
0300
0200
0000
,
0000
0000
0000
0000
2300
3000
0200
0300
2000
3000
0200
0300
2000
3000
0200
0300
2000
3000
0200
0300
2000
3000
0200
0300
2000
3000
0200
0300
2000
0000
0000
0000
,
3200
0000
0310
0100
1000
0100
1000
0100
0010
0100
1000
0100
1000
0100
0010
0100
,
0010
0100
0001
0100
0010
0100
0010
0100
0001
0100
0010
0100
0010
0100
0001
0100
,
0010
0100
0020
0000
0000
0000
0000
0000
0230
0000
0000
0000
0000
0000
2300
0000
,
0000
0000
3200
0000
0000
2300
3200
0302
,
0023
0000
1030
0100
0010
0100
0010
0001
0010
0100
0010
0100
1000
0100
0010
0100
,
0010
0001
0010
0100
0010
0100
1000
0100
0010
0100
0010
0001
0010
0100
1000
0100
,
0010
0001
2020
3030
0200
0300
2020
3030
0200
0300
2020
3030
0200
0300
2020
3030
,
0200
0300
0022
0033
0200
0300
0022
0033
0200
0300
0022
0033
0002
0000
0000
0000
,
0000
2103
0000
0000
3200
0000
0000
0320
,
0000
0231
0000
0000
2300
0000
0000
3200
,
0000
0300
1100
0000
1100
0000
0000
0000
1100
0000
1001
0000
1001
0000
0000
0000
,
0000
1001
1001
0000
1001
1100
1100
0000
,
0000
0000
1000
0010
1000
0001
0100
0010
0100
0001
1000
0001
0100
0010
1000
0010
,
1000
0001
0100
0010
1000
0001
0100
0001
1000
0010
0100
0001
1000
0010
0200
0000
,
0320
0000
0031
0100
0001
1000
0010
1000
0001
0100
0001
1000
0010
1000
0001
0100
,
0001
1000
0020
1030
0001
0100
0002
1003
0010
1000
0001
0100
0001
1000
0020
0000
,
0000
0030
0001
0010
0001
1000
0100
1000
0001
0010
1000
0100
0001
0010
1000
0100
,
0010
0001
1000
0100
0010
0100
1000
0001
0010
0100
0010
0001
0010
0100
1000
0100
,
0010
0001
2010
0100
0010
0100
0010
0100
0010
0100
0010
0100
0010
0100
0010
0100
,
0010
3100
0012
0100
0010
0100
0010
0100
0010
0100
0010
0100
0010
0100
0010
0100
,
0010
0103
1000
0100
0010
1000
0001
0010
0100
0001
1000
0100
0010
1000
0001
0010
,
0100
0001
1000
0100
0010
1000
0001
0010
0100
0001
1000
0100
0010
1000
0001
0010
,
0100
1000
0001
0100
0001
1000
0010
1000
0010
0100
0001
1000
0001
0100
0010
0100
,
0002
0203
2300
3200
0320
0032
0023
0230
,
2300
3120
0000
0000
0000
0100
0000
0100
,
0030
0210
0000
0000
0000
1000
0000
1000
,
0300
2010
0000
0000
0010
0010
0000
0000
,
0010
0000
0010
0000
0010
0001
0100
3001
,
0010
0000
0010
1000
0010
1000
0010
1000
0010
1000
0010
1000
0010
1000
0010
1000
,
0010
1000
0010
1000
0010
1000
0010
1000
0010
1000
0010
1000
0010
1000
0010
0000
,
0000
0000
0011
0100
0001
0100
1010
0000
1000
0000
0101
0010
0001
0000
0110
0000
,
0010
0000
1001
0100
1000
0000
0011
0000
0001
0000
1010
0100
0010
0000
0101
0000
,
0100
0000
1001
0010
0100
0000
0011
0000
0001
0000
1010
0100
0010
0000
1100
0000
,
0100
0000
1000
0100
1000
0100
1000
0100
0010
0001
1000
0100
1000
0100
1000
0100
,
1000
0001
0110
0000
0100
0000
0110
0000
0010
0000
0110
0000
0100
0000
0110
0000
,
0010
0110
0100
0110
0010
0110
0100
0110
,
0010
0200
2300
3200
2300
3200
0320
0230
,
0302
0203
0320
0230
0320
0230
0320
0032
,
0023
0000
1030
0100
1000
0100
1000
0100
1000
0100
1000
0100
1000
0100
1000
0100
,
1000
0100
0001
0100
0001
0100
0001
0100
0001
0100
0001
0100
0001
0100
0001
0100
,
0001
0100
0001
0010
1000
0010
1000
0010
1000
0010
1000
0010
1000
0010
1000
0010
,
1000
0010
0100
0010
0100
0010
0100
0010
0100
0010
0100
0010
0100
0010
0100
0010
,
0100
0010
0100
1000
0100
0010
0001
0010
0100
1000
0100
0010
0001
0010
0100
1000
,
0100
0010
0001
0010
0100
1000
0100
0010
0001
0010
0100
1000
0100
0010
0001
0010
,
0100
0010
1000
0001
1000
0001
1000
0001
1000
0001
1000
0001
1000
0001
1000
0001
,
1000
0001
1000
0001
1000
0001
1000
0001
1000
0001
1000
0001
0010
0001
0010
0100
,
1000
0100
0012
0000
0010
0000
0010
0000
0010
0000
0010
0000
0010
0000
0010
0000
,
0010
2103
0100
0100
0100
0100
0100
0100
,
3100
2020
3030
0000
1010
1010
1010
2020
,
0000
3030
0000
0000
1010
0000
0220
0000
0000
0330
0101
0000
0101
0000
0202
0000
,
0000
0303
2020
3030
0000
0000
2200
3300
0000
0000
2020
3030
0000
0000
2200
3300
,
0000
0000
2020
3030
0000
0000
2200
3300
0000
0000
2020
3030
0000
0000
2200
3300
,
0000
0000
2020
3030
0001
0000
0001
0000
0001
0000
0001
0000
0001
0000
0001
0000
,
0001
0000
0001
0000
0001
0000
0001
0000
0001
0000
0001
0010
0100
1000
0100
0010
,
0001
0010
0001
1000
0010
1000
0001
0100
0010
0100
0001
0100
0001
1000
0010
1000
,
0001
0100
0010
1000
0001
0100
0001
1000
0010
0100
0001
1000
0001
1000
0010
0100
,
0001
0100
0001
1000
0010
1000
0001
0100
0001
1000
0001
0100
0010
0100
0001
0100
,
1000
0100
0012
0103
1000
0100
0012
0103
1000
0100
0012
0103
1000
0100
0012
0103
,
1000
0100
0010
0001
0010
1000
0100
0010
0001
1000
0001
0010
0100
1000
0001
1000
,
0100
0010
0001
1000
0001
0010
0100
1000
0001
1000
0100
0010
0001
1000
0001
0010
,
0100
1000
0001
0010
1000
0100
0001
0010
1000
0100
0001
0010
1000
0100
0001
0010
,
1000
0100
0011
0000
0000
0000
0011
0000
0000
0000
0011
0000
0000
0000
0011
0000
,
0000
0000
0001
0100
0010
1000
0001
0100
0010
1000
0100
0010
0001
1000
0010
0100
,
0001
1000
0010
0100
0001
0010
0100
1000
0001
1000
0010
0100
0001
1000
0010
0100
,
0001
0010
0100
0010
0001
1000
0001
0100
0010
1000
0001
0100
0010
1000
0100
0010
,
0100
1000
0001
0100
0001
1000
0010
1000
0001
0100
0001
1000
0010
1000
0001
0100
,
0001
1000
0010
1000
0001
0010
0001
1000
0100
1000
0001
0010
0001
1000
0100
1000
,
0001
0100
0001
1000
0010
1000
0001
0100
0001
1000
0010
1000
0001
0010
0001
1000
,
0100
1000
0001
1000
0001
1000
0001
1000
0001
1000
0001
1000
0001
1000
0001
1000
,
0001
1000
0001
1000
0001
1000
0001
1000
0001
1000
0001
0010
0001
0010
0100
1000
,
0010
0100
0010
0100
0010
0100
0010
0100
1000
0100
0010
0100
0010
0100
0010
0100
,
1000
0100
0010
0100
0010
0100
0010
0100
1000
0100
0010
0100
0010
0100
0010
0100
,
1000
0100
0011
0000
0100
0000
1010
0000
0001
0000
0110
0000
1000
0000
0101
0000
,
0010
1001
1000
0110
0001
1010
0100
0011
,
0100
0000
2000
0000
0010
0100
0010
0100
0010
0100
0010
0100
0010
0100
0010
0100
,
0010
0100
3020
1000
0001
1000
0001
1000
0001
1000
0032
0100
0010
0100
1000
0100
,
0010
0000
0000
0100
0000
0000
1013
0000
0000
0000
0000
0000
1100
0000
0000
0000
0000
0000
1010
0000
0000
0000
0000
0000
0001
0000
0010
0000
0100
0000
1000
0000
0000
0100
0000
0000
1000
0000
0000
0010
0000
0000
0100
0000
0000
0000
0000
0000
,
0010
0001
1010
0000
0110
0000
1100
0000
0110
0001
0010
0100
1000
0001
0010
0100
,
1000
0000
0000
0100
0000
0000
1010
0000
0000
0000
0000
0000
0110
0000
0000
0000
0000
0000
0101
0000
0000
0000
0000
0000
1000
0000
0100
0000
0010
0000
0001
0000
0000
1000
0000
0000
0100
0000
0000
1000
0000
0000
0100
0000
0000
0000
0000
0000
,
0010
0001
1100
0000
0101
0000
1100
0000
0101
0010
0100
1000
0100
0010
0001
0010
,
0100
1000
1001
0000
0100
0000
0001
0010
1000
0100
1000
0010
0100
0001
0010
0000
,
0000
0000
1001
0000
0000
0000
0001
1000
0000
0100
1000
0010
0100
0010
0001
0010
,
0100
1000
0110
0110
0110
0110
0110
0110
0110
0110
0110
0110
0110
0110
0110
0110
,
0110
0110
0101
0101
0101
0101
0101
0101
0101
0101
0101
0101
0101
0101
0101
0101
,
0101
0101
0010
1000
0010
1000
0100
0100
0100
0011
0000
0101
0000
0110
0000
1010
,
0000
0001
0100
0001
0100
0001
0010
0010
0010
0110
0000
0011
0000
1010
0000
1100
,
0000
0010
0100
0010
0100
0010
0100
0100
0100
1100
0000
1001
0000
0101
0000
0011
,
0000
1000
0010
1000
0010
1000
0001
0001
0001
0011
0000
1100
0000
0011
0000
1010
,
0000
0001
1000
0001
1000
0001
0100
0100
0100
0110
0000
0101
0000
1010
0000
1001
,
0000
0100
0000
0100
0100
0000
0010
0000
0010
1100
0000
0011
0000
0101
0000
1001
,
0000
0000
0000
0000
0001
0000
0000
0000
2020
3030
0000
0000
0000
0000
0000
0000
0100
0000
0000
0000
2020
3030
0000
0000
0000
0000
0000
0000
0001
0000
0000
0000
0220
0330
0000
0000
0000
0000
0000
0000
2020
3030
0000
0000
0000
0000
0000
0000
0100
0000
0000
0000
2020
3030
0000
0000
0000
0000
0000
0000
0010
0000
0000
0000
,
0202
0303
0000
0000
0000
0000
0000
0000
2020
3030
0000
0000
0000
0000
0000
0000
1000
0000
0000
0000
0202
0303
0000
0000
0000
0000
0000
0000
1000
0000
0000
0000
0202
0303
0000
0000
0000
0000
0000
0000
0012
0000
0100
0000
0010
0000
0100
0000
0010
0000
0100
0000
0010
0000
0100
0000
0010
0000
0100
0000
0010
0000
0100
0000
,
0010
0100
0010
0100
0023
0000
1000
0000
0100
0000
1000
0000
0100
0000
1000
0000
0100
0000
1000
0000
0032
0000
0100
0000
0010
0000
0100
0000
0023
0000
1000
0000
,
0001
1000
0230
0001
1000
0001
1000
0001
1000
0001
2300
0001
0010
0100
0001
0010
,
3100
1000
0101
0000
0101
0000
0101
0000
0000
0011
0000
0011
0000
0011
0000
0110
,
0110
0000
0000
0000
0020
0000
0000
0000
0000
0000
0000
0000
0000
0000
0030
0000
1001
0000
1001
0000
0002
0023
0032
0023
0032
0023
0032
0023
0032
0023
0032
0023
,
0032
0023
0032
0023
1030
0000
0100
0000
0010
0000
0001
0000
1000
0000
0100
0000
0010
0000
0001
0000
1000
0000
0100
0000
0010
0000
0001
0000
1000
0000
0100
0000
,
0010
0001
0010
0100
1000
0100
0010
0001
0010
0100
1000
0100
0010
0001
0010
0100
,
0010
0001
0010
0100
1000
0100
0010
0100
1000
0100
0010
0100
1000
0100
0010
0001
,
0010
0100
1000
0100
0010
0001
0010
0100
1000
0100
0020
0000
0000
0000
0000
0000
,
0030
0001
0002
0000
0023
0230
2300
3200
,
0320
0000
2030
0000
3200
0000
0000
0000
2300
0000
3001
0010
0100
0010
0002
0000
,
0000
0203
0000
0000
2300
0000
0000
3200
,
0000
0000
0320
0000
0000
0000
0000
0000
0230
0000
0301
0010
0100
0010
0001
0010
,
0100
0010
1000
0100
0010
0001
2000
0000
3000
0000
1000
0100
0010
0001
2000
0000
,
3000
0000
0001
0010
0100
1000
0100
0010
0001
0010
0100
0010
0001
0010
0100
1000
,
0100
0010
0001
0010
0001
0010
0001
0010
0001
0010
0001
0010
0001
0010
0001
0010
,
0001
0010
0001
0100
0001
0100
0001
0100
0001
0100
0001
0100
0001
0100
0001
0100
,
0001
0100
0002
0000
0023
0000
0000
0000
2030
0000
3200
0000
0320
0000
0032
0000
,
0023
0000
2030
0000
3200
0000
0000
0000
2300
0000
3001
0010
0100
1000
0002
0000
,
0000
0000
0003
0000
0000
0000
0001
0000
0000
0010
0000
0000
0100
0000
0000
1000
0000
0000
0001
0000
0000
0010
0000
0000
0100
0000
0000
1000
0000
0000
0001
0000
0000
0010
0000
0000
0100
0000
0000
1000
0000
0000
0100
0000
0000
0010
0000
0000
,
0001
1000
0100
0010
0001
1000
0100
0010
0001
0010
0200
0300
0200
0300
0200
0300
,
0200
0300
1001
0000
0000
0000
0200
0000
0320
0000
0032
0000
0023
0000
0030
0000
,
0020
0230
0000
0320
0230
0320
0230
0320
,
0230
2300
0000
3020
0230
2300
3200
0320
,
0032
0010
0000
0010
0000
0010
0013
0100
,
1000
0000
0000
1000
0100
1000
0100
1000
0100
1000
0100
1000
0100
1000
0100
1000
0010
1000
0010
1000
0010
1000
0010
1000
,
0010
1000
0010
1000
0001
1000
0001
1000
0001
1000
0001
1000
0001
1000
0001
1000
0100
0010
0001
0010
0100
1000
0100
0010
,
0001
0000
0010
0000
0100
0000
1000
0000
0000
0100
0000
0000
0001
0000
0000
0010
0000
0000
1000
0000
0000
0100
0000
0000
0001
0000
0000
0010
0000
0000
0100
0000
0000
1000
0000
0000
0010
0000
0000
0100
0000
0000
0001
0000
0000
0010
0000
0000
,
0100
1000
0100
0010
0001
0100
0010
1000
0100
0010
0001
0010
0100
1000
0020
0000
,
0000
0000
0031
0010
0100
0010
0001
0010
0100
1000
0100
0010
0100
1000
0100
0010
,
0001
0010
0100
1000
0100
0001
0100
1000
0100
0001
0100
1000
0010
0001
0020
0000
,
0000
0030
0001
0010
0001
0100
0001
0010
0001
0100
0010
1000
0010
0100
0010
1000
,
0010
1000
0100
0010
0100
1000
0100
0010
0100
1000
0100
1000
0100
0010
0002
0000
,
0000
0003
0010
1000
0010
1000
0010
1000
0100
0010
0001
0010
1000
0010
1000
0010
,
1000
0010
2000
0000
3002
0000
2003
0000
3020
0000
2030
0000
3200
0000
2300
0000
,
3020
0000
0000
0031
0010
0100
0001
0010
0100
0001
0010
0100
0001
0010
0100
0001
0100
1000
0001
0100
1000
0001
0100
1000
,
0010
0100
1000
0010
0100
1000
0010
0100
1000
0001
0010
0100
1000
0100
0010
0001
0010
0100
1000
0100
0010
0001
0010
0100
,
1000
0100
0010
0200
0000
0000
0000
0000
0000
0000
0000
0000
0320
0000
0000
0000
0000
0000
0000
0000
0000
0230
0000
0000
,
0000
2300
3020
2030
3020
2030
3200
0320
,
0230
0320
0000
0000
1000
1000
0000
0130
,
2000
0000
0001
0100
0001
3020
0100
0100
,
0130
1000
1000
0110
0100
1000
1000
0110
,
0010
0001
0001
0110
0010
0100
0100
1010
,
1000
0010
0010
0100
0100
0010
0010
0100
,
0100
0010
0010
0100
0100
0001
0001
0010
,
0010
0002
0023
0230
2300
3200
0320
0230
,
1300
0100
0010
0001
0000
0000
0000
0100
0010
0001
0000
0000
0000
0100
0010
0002
0000
0000
0000
0000
0000
0000
0000
0000
,
0000
0023
0230
2300
3020
0230
2300
3200
,
2300
0000
0000
3001
0010
0100
1000
0100
0010
0001
0010
0100
1000
0100
0010
0001
0010
0100
1000
0100
0010
0001
0010
0100
,
1000
0000
0100
0000
0010
0000
0001
0000
0000
0010
0000
0000
0100
0000
0000
1000
0000
0000
0100
0000
0000
1000
0000
0000
0100
0000
0000
1000
0000
0000
0100
0000
0000
0010
0000
0000
0100
0000
0000
1000
0000
0000
0100
0000
0000
1000
0000
0000
,
0100
1000
0100
0010
0001
0010
0100
0010
0001
0010
0001
0010
0001
0010
0100
0010
,
0001
0010
0001
0010
0100
1000
0100
0010
0001
0010
0100
1000
0100
0010
0001
0010
,
0100
0010
2200
3300
0000
0000
0101
0000
0000
0000
2002
3003
0000
0000
0011
0000
,
0000
2000
3200
0320
0032
0203
0320
2030
,
3200
0000
0000
0001
0320
0000
0000
0000
0030
0000
0000
0001
0020
0000
0000
0000
0030
0000
0000
0000
0020
0000
0000
0000
0230
0000
0000
0000
0000
0000
0000
0000
,
2300
0000
3200
0000
0000
0320
0000
0000
0032
0000
0203
0000
0000
2300
0000
0000
,
3200
0000
0320
0000
0000
0000
0000
0000
0000
0000
0000
0000
0000
0030
0002
0000
,
0000
0003
2000
0000
3200
0000
2300
0000
3200
0000
2300
0000
3200
0000
2300
0000
,
3200
0320
0230
0320
0230
0302
0000
0000
,
0000
0000
0000
0003
0000
0000
1000
0000
0100
0000
0010
0000
0001
0000
0010
0000
0100
0000
1000
0000
0100
0000
0010
0000
0001
0000
0010
0000
0100
0000
2000
0000
0000
0000
0000
0000
3200
0000
0000
0000
0000
0000
0320
0000
0000
0000
0000
0000
,
0032
0000
0023
0000
0000
0230
0000
0000
0320
0000
1032
0100
0010
0100
1000
0100
,
0013
0100
1001
0000
0100
0010
0100
0010
0100
0010
0001
0010
0100
0010
0100
0010
,
0100
0000
0000
0010
0000
0000
0001
0000
0000
0010
0000
0000
0100
0000
0000
1000
0000
0000
0100
0000
0000
0010
0000
0000
0001
0000
0000
0010
0000
0000
2000
3000
0200
0300
0020
0030
0002
0003
0020
0030
0200
0300
2000
3000
0200
0300
0020
0030
,
0002
0003
0020
0030
0200
0300
2000
3000
0000
0010
0000
0000
1000
0000
0000
0010
0000
0000
1000
0000
0000
0100
0000
0000
0010
0000
0000
0100
0000
0000
1000
0000
0000
0100
0000
0000
0010
0000
0000
0100
0000
0000
1000
0000
0000
0100
0000
0000
,
1000
0100
1000
0100
0010
0001
1000
0100
0010
0001
1000
0100
0010
0001
1000
0100
,
0010
0001
1000
0100
0010
0100
1000
0100
0010
0100
1000
0100
0010
0001
0010
0100
,
0010
0100
0010
0001
0010
0001
0010
0001
0010
0100
1000
0100
1000
0100
0002
0000
,
0000
0003
0001
0010
0100
0001
0010
0100
0001
0010
0100
0010
0100
1000
0010
0100
,
1000
0010
0100
1000
0001
0100
1000
0001
0100
1000
0001
0100
1000
0100
2000
0000
,
0000
0000
0000
0000
0000
0000
0000
0000
3020
0030
0000
0000
0000
0000
0000
0000
0002
0003
0000
0000
0000
0000
0000
0000
0020
0030
0000
0000
0000
0000
0000
0000
0002
0000
0000
0000
0000
0000
0000
0000
0000
0000
0000
0000
0000
0000
0000
0000
0203
0300
0000
0000
0000
0000
0000
0000
2000
0000
0000
0000
0000
0000
0000
0000
,
3200
0300
0000
0000
0000
0000
0000
0000
0002
0003
0000
0000
0000
0000
0000
0000
0020
0000
0000
0000
0000
0000
0000
0000
0000
0000
0000
0000
0000
0000
0000
0000
0032
0003
0000
0000
0000
0000
0000
0000
0200
0300
0000
0000
0000
0000
0000
0000
0002
0003
0000
0000
0000
0000
0000
0000
0200
0300
0000
0000
0000
0000
0000
0000
,
0002
0003
0000
0000
0000
0000
0000
0000
0200
0300
0000
0000
0000
0000
0000
0000
0100
0000
0000
0000
1000
0000
0000
0000
0100
0000
0000
0000
1000
0000
0000
0000
0100
0000
0000
0000
0010
0000
0000
0000
0002
0003
0000
0000
0010
0000
0000
0000
0100
0000
0000
0000
0010
0000
0000
0000
0100
0000
0000
0000
0010
0000
0000
0000
,
0100
0000
0000
0000
0010
0000
0000
0000
0002
0003
0000
0000
0010
0000
0000
0000
0100
0000
0000
0000
1000
0000
0000
0000
0100
0000
0000
0000
0010
0000
0000
0000
0001
0000
0000
0000
0100
0000
0000
0000
1000
0000
0000
0000
0100
0000
0000
0000
0001
0000
0000
0000
0100
0000
0000
0000
1000
0000
0000
0000
0100
0000
0000
0000
,
0001
0010
2100
0000
3010
0000
0001
0000
0010
0000
0100
0000
0001
0000
0010
0000
,
0001
0010
0100
1000
0000
0000
0000
0000
0000
0001
0000
0000
1000
0000
0000
0110
0000
0000
0000
0000
0000
1001
0000
0000
,
0000
0110
0000
1000
0010
0100
0001
0010
,
1000
0100
0010
0001
0000
0000
0000
0000
0000
0100
0000
0000
0010
0000
0000
1000
0000
0000
0000
0000
0000
0010
0000
0000
,
0000
0001
0010
0100
0010
0100
0010
0100
,
1000
0100
0010
0000
0000
0000
0001
0000
0100
0000
0010
0000
0001
0000
1000
0000
,
0001
0100
0010
0000
0000
0000
1001
0000
0000
0000
0101
0000
0000
0000
0110
0000
,
0000
1010
0101
0110
1001
0011
0101
1100
,
0110
2001
0000
0000
0000
0000
0001
0010
,
0100
3021
0000
0000
0000
0100
0000
0000
,
1000
0231
0000
0000
0000
0001
0000
0010
,
0001
2310
0000
0100
0010
0001
0000
0010
,
0000
3102
0000
0000
0000
0010
0010
0010
,
0100
1000
0213
0000
0000
0000
0000
0000
0000
0000
0001
0000
0001
0000
0001
0000
,
0010
0001
1320
0000
0000
0000
0000
0000
0000
0000
1000
0000
0000
0000
0000
0000
,
1000
0000
0130
1000
0100
0000
0001
0010
0001
0000
0100
0000
0000
0100
0000
0000
,
0100
2001
0000
0000
0000
0001
0000
0000
,
0001
0100
3021
0000
0000
0000
0000
0000
0000
0000
0001
0000
0000
0000
0000
0000
,
1000
1230
0000
0000
0000
0010
0000
0001
,
0001
0000
0312
0000
0000
0000
0000
0000
0000
0000
0010
0100
0010
0000
0100
0010
,
0100
2013
0000
0000
0000
0010
0000
0000
,
0001
0010
3201
0000
0000
0000
0000
0000
0000
0000
1000
0000
0000
0000
0000
0000
,
1000
0001
1320
0000
0000
0000
0000
0000
0000
0000
0100
0000
0000
0000
1000
0000
,
1000
0000
0000
0130
0010
0100
0010
0100
0010
0100
0010
0100
0010
0100
0010
0100
0010
0100
0010
0100
0010
0100
0010
0100
,
0010
0000
0000
0000
0000
0000
0000
0000
0100
0000
0000
0000
0000
0000
0000
0000
0010
0000
0000
0000
0000
0000
0000
0000
2002
0000
0000
0000
0000
0000
0000
0000
0000
0000
0000
0000
0000
0000
0000
0000
0000
0000
0000
0000
0000
0000
0000
0000
0000
0000
0000
0000
0000
0000
0000
0000
0000
0000
0000
0000
0000
0000
0000
0000
0000
0000
0000
0000
0000
0000
0000
0000
0000
0000
0000
0000
0000
0000
0000
0000
0000
0000
0000
0000
0000
0000
0000
0000
0000
0000
0000
0000
0000
0000
0000
0000
0000
0000
0000
0000
0000
0000
0000
0000
0000
0000
0000
0000
0000
0000
0000
0000
0000
0000
0000
0000
0000
0000
0000
0000
0000
0000
0000
0000
0000
0000
0000
0000
0000
0000
0000
0000
0000
0000
0000
0000
0000
0000
0000
0000
0000
0000
0000
0000
0000
0000
0000
0000
0000
0000
0000
0000
0000
0000
0000
0000
0000
0000
0000
0000
0000
0000
0000
0000
0000
0000
0000
0000
3003
0000
0000
0000
0000
0000
0202
0000
0000
0000
0000
0000
0000
0000
0000
0000
0000
0000
0000
0000
0000
0000
0000
0000
,
0000
0000
0000
0000
0000
0000
0000
0000
0000
0000
0000
0000
0303
2020
0000
0000
,
0000
0000
0000
0000
0000
3030
0000
0000
;
